He-Man y los Amos del Universo 130/130 Audio Español Latino | ANIMEGA

Ads (728x90)

http://descargasanimega.blogspot.mx/p/gana-dinero-con-ouoio.html

Con tecnología de Blogger.


 
Título original: He-Man and the Masters of the Universe
Título Latino: He-Man y los Amos del Universo
Género: Serie de TV. Animación. Aventuras. Fantástico | Espada y brujería
País: Estados Unidos
Director: Ed Friedman, Lou Kachivas
Guión: Lawrence G. DiTillio, David Chappe
Música: Erika Lane, Shuki Levy, Haim Saban
Año: 1983
Audio: Español Latino
Tamaño: 41 a 52MB Por capitulo
Calidad: Dvdrip
Duración: 22 min.
Capitulos :130
Formato Mp4
Servidor: Mega
Pass: ANIMEGA




General
Format : MPEG-4
Format profile : Base Media
Codec ID : isom
File size : 45.3 MiB
Duration : 20mn 52s
Overall bit rate mode : Variable
Overall bit rate : 303 Kbps
Encoded date : UTC 2008-10-18 09:24:51
Tagged date : UTC 2008-10-18 09:24:51

Video

ID : 1
Format : AVC
Format/Info : Advanced Video Codec
Format profile : High@L5.1
Format settings, CABAC : Yes
Format settings, ReFrames : 8 frames
Codec ID : avc1
Codec ID/Info : Advanced Video Coding
Duration : 20mn 52s
Bit rate : 268 Kbps
Maximum bit rate : 1 353 Kbps
Width : 640 pixels
Height : 480 pixels
Display aspect ratio : 4:3
Frame rate mode : Constant
Frame rate : 29.970 fps
Color space : YUV
Chroma subsampling : 4:2:0
Bit depth : 8 bits
Scan type : Progressive
Bits/(Pixel*Frame) : 0.029
Stream size : 40.0 MiB (88%)
Writing library : x264 core 56 svn-676
Encoded date : UTC 2008-10-18 09:24:51
Tagged date : UTC 2008-10-18 09:25:08

Audio

ID : 2
Format : AAC
Format/Info : Advanced Audio Codec
Format profile : HE-AACv2 / HE-AAC / LC
Codec ID : 40
Duration : 20mn 52s
Bit rate mode : Variable
Bit rate : 32.0 Kbps
Maximum bit rate : 36.0 Kbps
Channel(s) : 2 channels / 1 channel / 1 channel
Channel positions : Front: L R / Front: C / Front: C
Sampling rate : 44.1 KHz / 44.1 KHz / 22.05 KHz
Compression mode : Lossy
Stream size : 4.78 MiB (11%)
Encoded date : UTC 2008-10-18 09:25:07
Tagged date : UTC 2008-10-18 09:25:08


Serie de dibujos animados de principios de los años 80. He-Man posee una doble identidad: es el príncipe Adam de Eternia y cuando obtiene el poder es un gran guerrero. El Reino de Eternia tuvo grandes ataques por el Consejo del Mal y este grupo fue atrapado por el muro místico. Skeletor y su grupo hacían todo lo posible para destruir ese muro hasta que lo consiguieron en el día que el Príncipe Adam cumplía 16 años. En ese momento la guardiana del Castillo de Grayskull “Hechizera”, vio que tanto Grayskull como Eternia sufrían peligro y telepáticamente se comunicó con Man at Arms para que llevara al Príncipe Adam al Castillo de Grayskull donde le explicara que será un gran guerrero llamado He-Man.


http://linkshrink.net/7gTiuB

 

001 AL 010.rar    512.8 MB
http://adf.ly/1VAqR2
011 AL 020.rar    494.9 MB
http://adf.ly/1VAqR3
021 AL 030.rar    472.4 MB
http://adf.ly/1VAqR4
031 AL 040.rar    517.5 MB
http://adf.ly/1VAqR5
041 AL 050.rar    592.3 MB
http://adf.ly/1VAqR6
051 AL 060.rar    633.5 MB
http://adf.ly/1VAqR7
061 AL 070.rar    571.8 MB
http://adf.ly/1VAqR8
071 AL 080.rar    570.9 MB
http://adf.ly/1VAqR9
081 AL 090.rar    689.7 MB
http://adf.ly/1VAqRA
091 AL 100.rar    710.2 MB
http://adf.ly/1VAqRB
101 AL 110.rar    532.6 MB
http://adf.ly/1VAqRC
111 AL 120.rar    472.9 MB
http://adf.ly/1VAqRD
121 AL 130.rar    473.3 MB
http://adf.ly/1VAqRE

SI TIENES PROBLEMAS PARA DESCARGAR CON LOS LINKS DE ARRIBA PRUEBA CON EL LINK DE AQUI ABAJO


https://www.facebook.com/sharer/sharer.php?u=https%3A%2F%2Fshar.es%2F1t36g8&t=DESCARGA%2Cs+ANIMEGA%3A+ANIME+EN+ORDEN+ALFABETICO


Publicar un comentario